Комментарии
(последние 100)

Файл: Навител Навигатор v9.7.2172
15 января 2017, 15:23
комментирует svyaz72:
- Народ карты у всех открываются? или только у меня такая фигня с картами...приложение тупо их не видит.
Другие комментарии [90]
-----
Файл: Alien Shooter TD
15 января 2017, 13:36
комментирует Sem70:
- Еще обзорчик https://www.youtube.com/watch?v=aBxldwVBzXw
Другие комментарии [7]
-----
Файл: Alien Shooter TD
15 января 2017, 13:35
комментирует Sem70:
- Обзор игры https://www.youtube.com/watch?v=aF5apqKpMZk
Другие комментарии [7]
-----
Файл: Rogue Wizards
15 января 2017, 13:35
комментирует Sem70:
- Русской версии пока нет.
Другие комментарии [2]
-----
Файл: СуперПуперМегаБудильник
15 января 2017, 03:56
комментирует Sem70:
- Большая просьба, без капса! Название изменил.
Другие комментарии [1]
-----
Файл: Grave Digger - Healed By Metal (2017)
15 января 2017, 03:48
комментирует Sem70:
- Ух ты! Спасибо. Упустил такое чудо.
Другие комментарии [3]
-----
Файл: Музыка
15 января 2017, 01:38
комментирует Rich:
- Инфо крайний трек: Input #0, flac, from '12 - Figures.flac': Metadata: ENCODER : X Lossless Decoder 20161007 TITLE : Figures ARTIST : Bonobo ALBUM : Migration GENRE : Electronica COMPOSER : Simon Green/Tylana Renga Enomoto/Elkie Brooks album_artist : Bonobo track : 12 TRACKTOTAL : 12 TOTALTRACKS : 12 disc : 1 DISCTOTAL : 1 TOTALDISCS : 1 DATE : 2017 ISRC : GBCFB1604711 MCN : 5054429005714 ARTISTSORT : Bonobo ALBUMARTISTSORT : Bonobo ITUNES_CDDB_1 : 960E870C+279107+12+150+24774+45376+81037+101204+117983+136821+159503+177319+194760+228434+251484 REPLAYGAIN_TRACK_GAIN: -5.64 dB REPLAYGAIN_TRACK_PEAK: 0.98858643 Duration: 00:06:08.31, start: 0.000000, bitrate: 717 kb/s Stream #0:0: Audio: flac, 44100 Hz, stereo, s16 Side data: replaygain: track gain - -5.640000, track peak - 0.000023, album gain - unknown, album peak - unknown, Output #0, ipod, to '12 - Figures.m4a': Metadata: REPLAYGAIN_TRACK_PEAK: 0.98858643 TITLE : Figures ARTIST : Bonobo ALBUM : Migration GENRE : Electronica COMPOSER : Simon Green/Tylana Renga Enomoto/Elkie Brooks album_artist : Bonobo track : 12 TRACKTOTAL : 12 TOTALTRACKS : 12 disc : 1 DISCTOTAL : 1 TOTALDISCS : 1 DATE : 2017 ISRC : GBCFB1604711 MCN : 5054429005714 ARTISTSORT : Bonobo ALBUMARTISTSORT : Bonobo ITUNES_CDDB_1 : 960E870C+279107+12+150+24774+45376+81037+101204+117983+136821+159503+177319+194760+228434+251484 REPLAYGAIN_TRACK_GAIN: -5.64 dB encoder : Lavf57.56.100 Stream #0:0: Audio: aac (LC) (mp4a / 0x6134706D), 44100 Hz, stereo, fltp (16 bit), 128 kb/s Metadata: encoder : Lavc57.64.101 aac Stream mapping: Stream #0:0 -> #0:0 (flac (native) -> aac (native))
Другие комментарии [0]
-----
Файл: SolSuite Solitaire 2017 17.1 repack by KpoJIuK
15 января 2017, 01:01
комментирует Tarkett:
- Перевод правил
Другие комментарии [2]
-----
Файл: SolSuite Solitaire 2017 17.1 Portable + (Graphics Pack) PortableApps
15 января 2017, 01:01
комментирует Tarkett:
- Перевод правил
Другие комментарии [0]
-----
Файл: Microsoft Windows 7 Ultimate Ru x64 SP1 7DB by OVGorskiy® 06.2016
14 января 2017, 22:14
комментирует Tarkett:
- Залиты более свежие версии файла на сайт, этот файл я на что нибудь обновлю позже
Другие комментарии [1]
-----

стр. Пред. 1,2,3,4,5,6,7,8,9,10 След. 
Архив файлов
На главную

waplog

0.019 сек
SQL: 1