ПравилаРегистрацияВход
НАВИГАЦИЯ

Лолита - Прощай Оружие

Архив файлов » Обменник » Видео » Видеоролики
Лолита - Прощай Оружие
Скриншот: Лолита - Прощай Оружие (8.1 Kb)
Неплохой клип.
==============
ФОРМАТ:
Video
ID : 2
Format : MPEG-4 Visual
Format profile : Simple@L3
Format settings, BVOP : No
Format settings, QPel : No
Format settings, GMC : No warppoints
Format settings, Matrix : Default (H.263)
Codec ID : 20
Duration : 3mn 27s
Bit rate mode : Constant
Bit rate : 386 Kbps
Width : 320 pixels
Height : 240 pixels
Display aspect ratio : 4:3
Frame rate mode : Constant
Frame rate : 24.000 fps
Color space : YUV
Chroma subsampling : 4:2:0
Bit depth : 8 bits
Scan type : Progressive
Bits/(Pixel*Frame) : 0.209
Stream size : 9.55 MiB (74%)
Writing library : XviD 1.2.1 (UTC 2008-12-04)
Language : English

Audio
ID : 1
Format : AAC
Format/Info : Advanced Audio Codec
Format version : Version 4
Format profile : LC
Format settings, SBR : No
Codec ID : 40
Duration : 3mn 27s
Bit rate mode : Constant
Bit rate : 128 Kbps
Channel(s) : 2 channels
Channel positions : Front: L R
Sampling rate : 44.1 KHz
Stream size : 3.17 MiB (25%)
Language : English
=======================
Длительность: 00:03:27
Формат видео: mpeg4, 320x240, 24 кадр./с
Формат аудио: aac, 44.1 кГц, стерео
md5: d929491bef46632ba3c5c5b3bed144f5
Добавил: Sem70
Дата: 29 августа 2010, 10:55
Кол-во загрузок: 492
Последнее скачивание: 28 сентября 2017, 16:18
Скачать файл (mp4) 12.8 Mb   |   (flv) 8.7 MbКомментарии (0)
Мобильный портал, Profi © 2005-2017
Время генерации страницы: 0.108 сек
Общая загрузка процессора: 7%
SQL-запросов: 3
Rambler's Top100