ПравилаРегистрацияВход
НАВИГАЦИЯ

DIO - Holy Diver

Архив файлов » Обменник » Видео » Видеоролики
DIO - Holy Diver
Скриншот: DIO - Holy Diver (5.9 Kb)
Я думаю что этот ВЕЛИКИЙ певец в представлении не нуждается!
По моему мнению это самый мощьный вокалист за всю историю рока!
Dio - группа Ронни Джеймса Дио, играющая в стиле хэви-метал. Она была основана в 1982 году после ухода Ронни из Black Sabbath.
__________________________________________________
Media Info:
========
Video
Format : H.263
Duration : 4mn 22s
Bit rate : 469 Kbps
Width : 320 pixels
Height : 240 pixels
Display aspect ratio : 4:3
Frame rate : 24.000 fps
Bits/(Pixel*Frame) : 0.254
Stream size : 14.7 MiB (97%)

Audio
Format : MPEG Audio
Format version : Version 1
Format profile : Layer 3
Mode : Joint stereo
Duration : 4mn 22s
Bit rate mode : Constant
Bit rate : 96.0 Kbps
Channel(s) : 2 channels
Sampling rate : 44.1 KHz
Bit depth : 16 bits
Stream size : 3.00 MiB (20%)
Writing library : LAME3.98
=============================
Длительность: 00:04:22
Формат видео: flv, 320x240, 480 кбит/c, 24 кадр./с
Формат аудио: mp3, 44.1 кГц, 96 кбит/c, стерео
md5: 6267ab9a673479021aa69f938ef83027
Добавил: Sem70
Дата: 30 августа 2010, 16:05
Кол-во загрузок: 225
Последнее скачивание: 28 ноября 2016, 21:37
Скачать файл (flv) 15.1 MbКомментарии (0)
Мобильный портал, Profi © 2005-2017
Время генерации страницы: 0.11 сек
Общая загрузка процессора: 7%
SQL-запросов: 3
Rambler's Top100